[BT]2015_正义联盟:神明与怪物_WEB_DL_720P_英语[2.36G/MKV]


[BT]2015_正义联盟:神明与怪物_WEB_DL_720P_英语[2.36G/MKV]

作者:FX2015 时间:2015-07-11 分类:高清影视 评论:0条

[BT]2015_正义联盟:神明与怪物_WEB_DL_720

 

◎译  名 正义联盟:神明与怪物/正义联盟:神魔之战/正义联盟:神魔世界/正义联盟:神与魔

◎片  名 Justice League: Gods and Monsters

◎年  代 2015

◎国  家 美国

◎类  别 动作/科幻/动画

◎语  言 英语

◎上映日期 2015-07-08

◎IMDb评分 (voting begins after release)

◎IMDb链接 http://www.imdb.com/title/tt4324302/

◎导  演 Sam Liu

◎简  介

In an alternate universe| very different versions of DC's Trinity fight against the government after they are framed for an embassy bombing.

  • Video
  • ID                                       : 1
  • Format                                   : AVC
  • Format/Info                              : Advanced Video Codec
  • Format profile                           : High@L3.1
  • Format settings, CABAC                   : No
  • Format settings, ReFrames                : 2 frames
  • Codec ID                                 : V_MPEG4/ISO/AVC
  • Duration                                 : 1h 15mn
  • Bit rate                                 : 3 990 Kbps
  • Width                                    : 1 280 pixels
  • Height                                   : 718 pixels
  • Display aspect ratio                     : 16:9
  • Frame rate mode                          : Constant
  • Frame rate                               : 23.976 fps
  • Color space                              : YUV
  • Chroma subsampling                       : 4:2:0
  • Bit depth                                : 8 bits
  • Scan type                                : Progressive
  • Bits/(Pixel*Frame)                       : 0.181
  • Stream size                              : 2.11 GiB (89%)
  • Title                                    : Justice.League.Gods.and.Monsters.2015.720p.WEB-DL.DD5.1.H264
  • Language                                 : English
  • Default                                  : Yes
  • Forced                                   : No
  • Color range                              : Limited
  • Color primaries                          : BT.709
  • Transfer characteristics                 : BT.709
  • Matrix coefficients                      : BT.709
  • Audio
  • ID                                       : 2
  • Format                                   : AC-3
  • Format/Info                              : Audio Coding 3
  • Mode extension                           : CM (complete main)
  • Format settings, Endianness              : Big
  • Codec ID                                 : A_AC3
  • Duration                                 : 1h 15mn
  • Bit rate mode                            : Constant
  • Bit rate                                 : 384 Kbps
  • Channel(s)                               : 6 channels
  • Channel positions                        : Front: L C R, Side: L R, LFE
  • Sampling rate                            : 48.0 KHz
  • Bit depth                                : 16 bits
  • Compression mode                         : Lossy
  • Stream size                              : 208 MiB (9%)
  • Title                                    : Justice.League.Gods.and.Monsters.2015.720p.WEB-DL.DD5.1.H264
  • Language                                 : English
  • Default                                  : Yes
  • Forced                                   : No
  • Text
  • ID                                       : 3
  • Format                                   : UTF-8
  • Codec ID                                 : S_TEXT/UTF8
  • Codec ID/Info                            : UTF-8 Plain Text
  • Language                                 : English
  • Default                                  : No
  • Forced                                   : No
  • Menu
  • 00:00:00.000                             : en:1
  • 00:09:13.000                             : en:2
  • 00:19:45.000                             : en:3
  • 00:29:25.000                             : en:4
  • 00:39:32.000                             : en:5
  • 00:49:10.000                             : en:6
  • 01:00:26.000                             : en:7
  • 01:09:52.000                             : en:8
  • 01:12:33.000                             : en:9

 

点击下载

 

 



标签:

热门推荐
更多

发表评论

电子邮件地址不会被公开。 必填项已用*标注